fg603603
一代宗师

[2017] [欧美] [其他] [WEB-1080P] 挖两座坟 Dig.Two.Graves.2014.1080p.NF.WEBRip.DD5.1.x264-QOQ 2.78GB

-->

帖子完整标题:挖两座坟 Dig.Two.Graves.2014.1080p.NF.WEBRip.DD5.1.x264-QOQ 2.78GB



◎译  名 挖两座坟
◎片  名 Dig Two Graves
◎年  代 2017
◎产  地 美国
◎类  别 悬疑 / 惊悚 / 恐怖 / 奇幻
◎语  言 英语
◎上映日期 2017-03-24(美国)
◎豆瓣评分 4.9/10 from 65 users
◎豆瓣链接 https://movie.douban.com/subject/27000080/
◎片  长 85分钟
◎编  剧 Jeremy Gittins Jeremy Gittins
◎主  演 泰德·拉文 Ted Levine
      萨曼莎·伊斯莱尔 Samantha Isler
      Dean Evans Dean Evans
      Ben Schneider Ben Schneider

◎标  签 悬疑 | 惊悚 | 恐怖 | 奇幻 | 美国 | 美国电影 | 2017 | 美式恐怖

◎简  介

  一个女孩痴迷于她哥哥的失踪,导致她在一个噩梦中来到一个的哥特式风格的城镇,她面临一个致命的问题, 她是否要去拯救她所爱的人?

Video
ID : 1
Format : AVC
Format/Info : Advanced Video Codec
Format profile : [email protected]
Format settings : CABAC / 3 Ref Frames
Format settings, CABAC : Yes
Format settings, Reference frames : 3 frames
Codec ID : V_MPEG4/ISO/AVC
Duration : 1 h 24 min
Bit rate mode : Variable
Bit rate : 4 420 kb/s
Maximum bit rate : 6 630 kb/s
Width : 1 920 pixels
Height : 1 080 pixels
Display aspect ratio : 16:9
Frame rate mode : Constant
Frame rate : 23.976 (24000/1001/189150) FPS
Color space : YUV
Chroma subsampling : 4:2:0
Bit depth : 8 bits
Scan type : Progressive
Bits/(Pixel*Frame) : 0.089
Stream size : 2.55 GiB (92%)
Writing library : x264 core 118
Encoding settings : cabac=1 / ref=3 / deblock=1:0:0 / analyse=0x1:0x111 / me=umh / subme=10 / psy=1 / psy_rd=1.00:0.00 / mixed_ref=1 / me_range=24 / chroma_me=1 / trellis=2 / 8x8dct=0 / cqm=0 / deadzone=21,11 / fast_pskip=1 / chroma_qp_offset=-2 / threads=8 / sliced_threads=0 / nr=0 / decimate=1 / interlaced=0 / bluray_compat=0 / constrained_intra=0 / bframes=2 / b_pyramid=0 / b_adapt=2 / b_bias=0 / direct=3 / weightb=1 / open_gop=0 / weightp=2 / keyint=48 / keyint_min=25 / scenecut=0 / intra_refresh=0 / rc_lookahead=0 / rc=2pass / mbtree=1 / bitrate=4420 / ratetol=1.0 / qcomp=0.50 / qpmin=6 / qpmax=51 / qpstep=4 / cplxblur=20.0 / qblur=0.5 / vbv_maxrate=6630 / vbv_bufsize=8840 / nal_hrd=vbr / ip_ratio=1.40 / aq=1:1.00
Default : Yes
Forced : No

Audio
ID : 2
Format : AC-3
Format/Info : Audio Coding 3
Commercial name : Dolby Digital
Codec ID : A_AC3
Duration : 1 h 24 min
Bit rate mode : Constant
Bit rate : 384 kb/s
Channel(s) : 6 channels
Channel layout : L R C LFE Ls Rs
Sampling rate : 48.0 kHz
Frame rate : 31.250 FPS (1536 SPF)
Compression mode : Lossy
Stream size : 231 MiB (8%)
Language : English
Service kind : Complete Main
Default : Yes
Forced : No

Text
ID : 3
Format : UTF-8
Codec ID : S_TEXT/UTF8
Codec ID/Info : UTF-8 Plain Text
Duration : 1 h 21 min
Bit rate : 30 b/s
Count of elements : 975
Stream size : 18.3 KiB (0%)
Title : SDH
Language : English
Default : No
Forced : No





1 个附件 售价 大小 下载 时间

Dig.Two.Graves.2014.1080p.NF.WEBRip.DD5.1.x264-QOQ.torrent 0 金币 28.38K 504 次 2天前

#1楼
发帖时间:2021-10-13 21:50:04   |   回复数:1
wggglggg
小有名气
先下为敬
2天前 #2楼
游客组