fg603603
一代宗师

[2020] [欧美] [喜剧] [BD-1080P] 爆炸的巴里 Fried.Barry.2020.1080p.BluRay.x264.DTS-FGT 9.22GB

-->

帖子完整标题:爆炸的巴里 Fried.Barry.2020.1080p.BluRay.x264.DTS-FGT 9.22GB



◎译  名 爆炸的巴里
◎片  名 Fried Barry
◎年  代 2020
◎产  地 美国
◎类  别 喜剧 / 科幻 / 恐怖
◎语  言 英语
◎上映日期 2020-03-06(影探电影节) / 2021-05-07(美国)
◎豆瓣评分 5.0/10 from 205 users
◎豆瓣链接 https://movie.douban.com/subject/35164088/
◎片  长 99分钟
◎主  演 布雷特·威廉姆斯 Brett Williams
      乔伊·克莱默 Joey Cramer
      肖恩·卡梅伦·迈克尔 Sean Cameron Michael
      史蒂夫·沃尔 Steve Wall
      哈基姆·凯-卡西姆 Hakeem Kae-Kazim
      塔梅尔·伯贾克 Tamer Burjaq

◎标  签 科幻 | 美国 | 恐怖 | 喜剧 | 暴力 | 2020 | 独立电影 | 血腥

◎简  介

  巴里(Barry)是个充满毒品的虐待性混蛋,在又一个弯刀之后,被外星人绑架。 当外星访客控制住自己的身体,并通过开普敦(Cape Town)进行操纵时,巴里(Barry)坐到了后座。 当我们的外星游客进入人类奇怪而美好的世界时,随之而来的是毒品,性和暴力的冲击。 弗里德·巴里(FRIED BARRY)是根据同名的短片改编而成,该短片获得了57场官方提名,并在全球电影节上获得了12场胜利。

Video
ID : 1
Format : AVC
Format/Info : Advanced Video Codec
Format profile : [email protected]
Format settings : CABAC / 4 Ref Frames
Format settings, CABAC : Yes
Format settings, Reference frames : 4 frames
Codec ID : V_MPEG4/ISO/AVC
Duration : 1 h 41 min
Bit rate : 11.5 Mb/s
Width : 1 920 pixels
Height : 804 pixels
Display aspect ratio : 2.40:1
Frame rate mode : Constant
Frame rate : 23.976 (24000/1001/189150) FPS
Color space : YUV
Chroma subsampling : 4:2:0
Bit depth : 8 bits
Scan type : Progressive
Bits/(Pixel*Frame) : 0.311
Stream size : 8.14 GiB (88%)
Writing library : x264 core 148 r2795M aaa9aa8
Encoding settings : cabac=1 / ref=4 / deblock=1:-2:-2 / analyse=0x3:0x113 / me=umh / subme=9 / psy=1 / psy_rd=1.00:0.15 / mixed_ref=1 / me_range=16 / chroma_me=1 / trellis=2 / 8x8dct=1 / cqm=0 / deadzone=21,11 / fast_pskip=1 / chroma_qp_offset=-3 / threads=24 / lookahead_threads=3 / sliced_threads=0 / nr=0 / decimate=1 / interlaced=0 / bluray_compat=0 / constrained_intra=0 / bframes=3 / b_pyramid=2 / b_adapt=1 / b_bias=0 / direct=3 / weightb=1 / open_gop=0 / weightp=2 / keyint=250 / keyint_min=25 / scenecut=40 / intra_refresh=0 / rc_lookahead=50 / rc=2pass / mbtree=1 / bitrate=11500 / ratetol=1.0 / qcomp=0.60 / qpmin=0 / qpmax=69 / qpstep=4 / cplxblur=20.0 / qblur=0.5 / vbv_maxrate=31250 / vbv_bufsize=31250 / nal_hrd=none / filler=0 / ip_ratio=1.40 / aq=1:1.00
Language : English
Default : Yes
Forced : No

Audio
ID : 2
ID in the original source medium : 4352 (0x1100)
Format : DTS
Format/Info : Digital Theater Systems
Codec ID : A_DTS
Duration : 1 h 41 min
Bit rate mode : Constant
Bit rate : 1 509 kb/s
Channel(s) : 6 channels
Channel layout : C L R Ls Rs LFE
Sampling rate : 48.0 kHz
Frame rate : 93.750 FPS (512 SPF)
Bit depth : 24 bits
Compression mode : Lossy
Stream size : 1.07 GiB (12%)
Title : DTS 5.1
Language : English
Default : No
Forced : No
Original source medium : Blu-ray

Text #1
ID : 3
Format : UTF-8
Codec ID : S_TEXT/UTF8
Codec ID/Info : UTF-8 Plain Text
Duration : 1 h 36 min
Bit rate : 33 b/s
Count of elements : 775
Stream size : 23.7 KiB (0%)
Language : English
Default : Yes
Forced : No

Text #2
ID : 4
Format : UTF-8
Codec ID : S_TEXT/UTF8
Codec ID/Info : UTF-8 Plain Text
Duration : 1 h 36 min
Bit rate : 35 b/s
Count of elements : 875
Stream size : 25.3 KiB (0%)
Title : SDH
Language : English
Default : No
Forced : No

Text #3
ID : 5
ID in the original source medium : 4608 (0x1200)
Format : PGS
Muxing mode : zlib
Codec ID : S_HDMV/PGS
Codec ID/Info : Picture based subtitle format used on BDs/HD-DVDs
Duration : 1 h 36 min
Bit rate : 16.5 kb/s
Count of elements : 2467
Stream size : 11.4 MiB (0%)
Language : English
Default : No
Forced : No
Original source medium : Blu-ray

Menu
00:00:00.000 : en:Chapter 01
00:14:11.600 : en:Chapter 02
00:26:09.818 : en:Chapter 03
00:44:22.368 : en:Chapter 04
00:53:16.443 : en:Chapter 05
01:04:32.785 : en:Chapter 06
01:17:04.578 : en:Chapter 07
01:36:51.680 : en:Chapter 08





1 个附件 售价 大小 下载 时间

Fried.Barry.2020.1080p.BluRay.x264.DTS-FGT.torrent 0 金币 23.65K 1022 次 2天前

#1楼
发帖时间:2021-11-25 10:54:04   |   回复数:1
popeye69
武林高手
感谢楼主分享。
2天前 #2楼
游客组