fg603603
一代宗师

[更 早] [欧美] [剧情] [4K-原盘] 公民凯恩/大国民 Citizen.Kane.1941.2160p.BluRay.REMUX.HEVC.LPCM.1.0-FGT 73.66GB

-->

帖子完整标题:公民凯恩/大国民 Citizen.Kane.1941.2160p.BluRay.REMUX.HEVC.LPCM.1.0-FGT 73.66GB



◎译  名 公民凯恩/大国民(港/台)
◎片  名 Citizen Kane
◎年  代 1941
◎产  地 美国
◎类  别 剧情 / 悬疑
◎语  言 英语,意大利语
◎上映日期 1941-09-05(美国)
◎豆瓣评分 8.7/10 from 95948 users
◎豆瓣链接 https://movie.douban.com/subject/1292288/
◎片  长 119 分钟
◎导  演 奥逊·威尔斯 Orson Welles
◎编  剧 赫尔曼·J·曼凯维奇 Herman J. Mankiewicz / 奥逊·威尔斯 Orson Welles
◎主  演 奥逊·威尔斯 Orson Welles
      约瑟夫·科顿 Joseph Cotten
      多萝西·康明戈尔 Dorothy Comingore
      阿格妮丝·摩尔海德 Agnes Moorehead
      雷·柯林斯 Ray Collins
      鲁斯·沃里克 Ruth Warrick
      哈里·香农 Harry Shannon

◎标  签 经典 | 美国 | 传记 | 黑白 | 公民凯恩 | 美国电影 | 剧情 | 1941

◎简  介

  美国报业大亨凯恩(奥森?韦尔斯)在桑拿都庄园中留下“玫瑰花蕾”的“遗言”死去后,一位青年记者受媒体的委托调查这四个字的含义,遂即,他走访了凯恩生前的同事好友,从报社董事长伯恩斯坦的口中,了解到凯恩的发迹历程以及如何制造舆论使美国卷入1897年的战争中的往事,从利兰的讲述中,凯恩与美国总统的侄女爱米丽的婚姻、与第二任妻子(歌手)苏珊的复杂关系及在总统竞选中的失败等等也被他一一所知。
  
  听过大量的讲述后,该记者又去图书馆查阅了有关凯恩的详尽资料,凯恩更多的一面,青年时代的经历及与母亲的关系也被他知晓,然而,“玫瑰花蕾”四字的含义,他仍不得而知。

◎获奖情况

  第14届奥斯卡金像奖 ?(1942)
  最佳影片(提名)
  最佳导演(提名) 奥逊·威尔斯
  最佳男主角(提名) 奥逊·威尔斯
  最佳原创剧本 赫尔曼·J·曼凯维奇?/?奥逊·威尔斯
  黑白片最佳摄影(提名) 格雷格·托兰德
  最佳剪辑(提名) 罗伯特·怀斯
  最佳录音(提名) 约翰·奥尔堡
  黑白片最佳艺术指导和室内布景(提名) A·罗兰德·菲尔德斯?/?佩里·弗格森?/?范·内斯特·波格拉斯?/?达雷尔·西尔维拉
  剧情片最佳配乐(提名) 伯纳德·赫尔曼

Video
ID : 1
ID in the original source medium : 4113 (0x1011)
Format : HEVC
Format/Info : High Efficiency Video Coding
Format profile : Main [email protected]@High
HDR format : Dolby Vision, Version 1.0, dvhe.07.06, BL+EL+RPU, Blu-ray compatible / SMPTE ST 2086, HDR10 compatible
Codec ID : V_MPEGH/ISO/HEVC
Duration : 1 h 59 min
Bit rate : 85.8 Mb/s
Width : 3 840 pixels
Height : 2 160 pixels
Display aspect ratio : 16:9
Frame rate mode : Constant
Frame rate : 23.976 (24000/1001/189150) FPS
Color space : YUV
Chroma subsampling : 4:2:0 (Type 2)
Bit depth : 10 bits
Bits/(Pixel*Frame) : 0.432
Stream size : 71.7 GiB (97%)
Language : English
Default : No
Forced : No
Color range : Limited
Color primaries : BT.2020
Transfer characteristics : PQ
Matrix coefficients : BT.2020 non-constant
Mastering display color primaries : BT.2020
Mastering display luminance : min: 0.0001 cd/m2, max: 1000 cd/m2
Maximum Content Light Level : 169 cd/m2
Maximum Frame-Average Light Level : 118 cd/m2
Original source medium : Blu-ray

Audio #1
ID : 2
ID in the original source medium : 4352 (0x1100)
Format : PCM
Format settings : Little / Signed
Codec ID : A_PCM/INT/LIT
Duration : 1 h 59 min
Bit rate mode : Constant
Bit rate : 1 152 kb/s
Channel(s) : 1 channel
Sampling rate : 48.0 kHz
Frame rate : 30.000 FPS (1600 SPF)
Bit depth : 24 bits
Stream size : 985 MiB (1%)
Title : LPCM 1.0
Language : English
Default : Yes
Forced : No
Original source medium : Blu-ray

Audio #2
ID : 3
Format : AC-3
Format/Info : Audio Coding 3
Commercial name : Dolby Digital
Codec ID : A_AC3
Duration : 1 h 59 min
Bit rate mode : Constant
Bit rate : 640 kb/s
Channel(s) : 1 channel
Channel layout : C
Sampling rate : 48.0 kHz
Frame rate : 31.250 FPS (1536 SPF)
Compression mode : Lossy
Stream size : 547 MiB (1%)
Title : DD 1.0
Language : English
Service kind : Complete Main
Default : No
Forced : No

Audio #3
ID : 4
ID in the original source medium : 4353 (0x1101)
Format : AC-3
Format/Info : Audio Coding 3
Commercial name : Dolby Digital
Codec ID : A_AC3
Duration : 1 h 59 min
Bit rate mode : Constant
Bit rate : 192 kb/s
Channel(s) : 1 channel
Channel layout : C
Sampling rate : 48.0 kHz
Frame rate : 31.250 FPS (1536 SPF)
Compression mode : Lossy
Stream size : 164 MiB (0%)
Title : DD 1.0
Language : English
Service kind : Complete Main
Default : No
Forced : No
Original source medium : Blu-ray

Audio #4
ID : 5
ID in the original source medium : 4354 (0x1102)
Format : AC-3
Format/Info : Audio Coding 3
Commercial name : Dolby Digital
Codec ID : A_AC3
Duration : 1 h 59 min
Bit rate mode : Constant
Bit rate : 192 kb/s
Channel(s) : 1 channel
Channel layout : C
Sampling rate : 48.0 kHz
Frame rate : 31.250 FPS (1536 SPF)
Compression mode : Lossy
Stream size : 164 MiB (0%)
Title : DD 1.0
Language : English
Service kind : Complete Main
Default : No
Forced : No
Original source medium : Blu-ray

Audio #5
ID : 6
ID in the original source medium : 4355 (0x1103)
Format : AC-3
Format/Info : Audio Coding 3
Commercial name : Dolby Digital
Codec ID : A_AC3
Duration : 1 h 59 min
Bit rate mode : Constant
Bit rate : 192 kb/s
Channel(s) : 1 channel
Channel layout : C
Sampling rate : 48.0 kHz
Frame rate : 31.250 FPS (1536 SPF)
Compression mode : Lossy
Stream size : 164 MiB (0%)
Title : DD 1.0
Language : English
Service kind : Complete Main
Default : No
Forced : No
Original source medium : Blu-ray

Text #1
ID : 7
Format : UTF-8
Codec ID : S_TEXT/UTF8
Codec ID/Info : UTF-8 Plain Text
Duration : 1 h 55 min
Bit rate : 81 b/s
Count of elements : 1750
Stream size : 68.9 KiB (0%)
Language : English
Default : Yes
Forced : No

Text #2
ID : 8
Format : UTF-8
Codec ID : S_TEXT/UTF8
Codec ID/Info : UTF-8 Plain Text
Duration : 1 h 55 min
Bit rate : 87 b/s
Count of elements : 1873
Stream size : 73.5 KiB (0%)
Title : SDH
Language : English
Default : No
Forced : No

Text #3
ID : 9
ID in the original source medium : 4768 (0x12A0)
Format : PGS
Muxing mode : zlib
Codec ID : S_HDMV/PGS
Codec ID/Info : Picture based subtitle format used on BDs/HD-DVDs
Duration : 1 h 55 min
Bit rate : 73.9 kb/s
Count of elements : 3784
Stream size : 61.2 MiB (0%)
Language : English
Default : No
Forced : No
Original source medium : Blu-ray

Menu
00:00:00.000 : en:Chapter 01
00:03:22.535 : en:Chapter 02
00:12:39.300 : en:Chapter 03
00:14:33.706 : en:Chapter 04
00:17:28.881 : en:Chapter 05
00:19:06.019 : en:Chapter 06
00:23:29.241 : en:Chapter 07
00:30:27.992 : en:Chapter 08
00:33:11.864 : en:Chapter 09
00:37:25.284 : en:Chapter 10
00:40:16.288 : en:Chapter 11
00:46:28.243 : en:Chapter 12
00:49:34.554 : en:Chapter 13
00:52:04.704 : en:Chapter 14
00:55:20.942 : en:Chapter 15
01:00:50.480 : en:Chapter 16
01:10:11.832 : en:Chapter 17
01:15:38.742 : en:Chapter 18
01:17:45.994 : en:Chapter 19
01:23:11.403 : en:Chapter 20
01:25:27.038 : en:Chapter 21
01:32:50.773 : en:Chapter 22
01:38:30.279 : en:Chapter 23
01:41:47.935 : en:Chapter 24
01:44:00.651 : en:Chapter 25
01:47:17.806 : en:Chapter 26
01:48:24.581 : en:Chapter 27
01:51:39.401 : en:Chapter 28
01:57:22.952 : en:Chapter 29





1 个附件 售价 大小 下载 时间

Citizen.Kane.1941.2160p.BluRay.REMUX.HEVC.LPCM.1.0-FGT.torrent 0 金币 92.72K 315 次 2天前

#1楼
发帖时间:2021-11-25 11:12:01   |   回复数:1
popeye69
武林高手
感谢楼主分享。
2天前 #2楼
游客组