fg603603
一代宗师

[2020] [欧美] [剧情] [BD-4K] 蒂米·菲列:错已铸成 Timmy.Failure.Mistakes.Were.Made.2020.2160p.WEB-DL.x265.10bit.HDR.DDP

-->

帖子完整标题:蒂米·菲列:错已铸成 Timmy.Failure.Mistakes.Were.Made.2020.2160p.WEB-DL.x265.10bit.HDR.DDP5.1.Atmos-TEPES 15.91GB



◎译  名 蒂米·菲列:错已铸成/Timmy Failure/蒂米·菲悟
◎片  名 Timmy Failure: Mistakes Were Made
◎年  代 2020
◎产  地 美国
◎类  别 剧情 / 儿童 / 奇幻 / 冒险
◎语  言 英语
◎上映日期 2020-01-25(圣丹斯电影节) / 2020-02-07(美国)
◎豆瓣评分 6.3/10 from 328 users
◎豆瓣链接 https://movie.douban.com/subject/27031097/
◎片  长 99分钟
◎导  演 汤姆·麦卡锡 Tom McCarthy
◎编  剧 汤姆·麦卡锡 Tom McCarthy / 斯蒂芬·帕斯蒂斯 Stephan Pastis
◎主  演 奥菲利亚·拉维邦德 Ophelia Lovibond
      华莱士·肖恩 Wallace Shawn
      凯尔·柏海莫 Kyle Bornheimer
      温斯洛·费格雷 Winslow Fegley
      克雷格·罗宾森 Craig Robinson
      克洛伊·科尔曼 Chloe Coleman
      Ruby Matenko Ruby Matenko
      艾-钱·卡里尔 Ai-Chan Carrier
      丹妮·海芙琳 Danni Heverin
      杰夫·桑卡 Jeff Sanca
      杰布·贝里耶 Jeb Berrier
      Jason Rouse Jason Rouse

◎标  签 儿童 | 奇幻 | 成长 | 2020 | 迪士尼 | 美国 | 家庭 | 剧情

◎简  介

  该片改编自同名儿童小说,麦卡锡将同原著作者斯蒂芬·帕斯蒂斯共同编剧。该小说讲述一个11岁的小男孩蒂米·菲悟,他是一个毫无头绪,却又自信搞笑的私家侦探机构总裁。而他的搭档是一只想象出的北极熊。

Video
ID : 1
Format : HEVC
Format/Info : High Efficiency Video Coding
Format profile : Main [email protected]@Main
Codec ID : V_MPEGH/ISO/HEVC
Duration : 1 h 39 min
Bit rate : 22.4 Mb/s
Width : 3 840 pixels
Height : 2 160 pixels
Display aspect ratio : 16:9
Frame rate mode : Constant
Frame rate : 23.976 (24000/1001/189150) FPS
Color space : YUV
Chroma subsampling : 4:2:0
Bit depth : 10 bits
Bits/(Pixel*Frame) : 0.113
Stream size : 15.6 GiB (98%)
Writing library : x265 3.4:[Linux][GCC 7.5.0][64 bit] 10bit
Encoding settings : cpuid=1111039 / frame-threads=16 / wpp / no-pmode / no-pme / no-psnr / no-ssim / log-level=2 / input-csp=1 / input-res=3840x2160 / interlace=0 / total-frames=0 / level-idc=50 / high-tier=0 / uhd-bd=0 / ref=3 / no-allow-non-conformance / repeat-headers / annexb / no-aud / no-hrd / info / hash=0 / no-temporal-layers / no-open-gop / min-keyint=48 / keyint=48 / gop-lookahead=0 / bframes=2 / b-adapt=0 / b-pyramid / bframe-bias=0 / rc-lookahead=20 / lookahead-slices=8 / scenecut=0 / hist-scenecut=0 / radl=0 / no-splice / no-intra-refresh / ctu=32 / min-cu-size=8 / no-rect / no-amp / max-tu-size=16 / tu-inter-depth=2 / tu-intra-depth=2 / limit-tu=0 / rdoq-level=1 / dynamic-rd=0.00 / no-ssim-rd / signhide / no-tskip / nr-intra=0 / nr-inter=0 / no-constrained-intra / no-strong-intra-smoothing / max-merge=3 / limit-refs=1 / no-limit-modes / me=1 / subme=2 / merange=44 / temporal-mvp / no-frame-dup / no-hme / weightp / no-weightb / no-analyze-src-pics / deblock=0:0 / no-sao / no-sao-non-deblock / rd=4 / selective-sao=0 / early-skip / rskip / no-fast-intra / no-tskip-fast / no-cu-lossless / b-intra / no-splitrd-skip / rdpenalty=1 / psy-rd=1.60 / psy-rdoq=5.00 / no-rd-refine / no-lossless / cbqpoffs=0 / crqpoffs=0 / rc=abr / bitrate=23000 / qcomp=0.75 / qpstep=4 / stats-write=0 / stats-read=0 / vbv-maxrate=25000 / vbv-bufsize=25000 / vbv-init=0.9 / ipratio=1.40 / pbratio=1.30 / aq-mode=3 / aq-strength=1.00 / no-cutree / zone-count=0 / no-strict-cbr / qg-size=32 / no-rc-grain / qpmax=69 / qpmin=0 / no-const-vbv / sar=1 / overscan=0 / videoformat=5 / range=0 / colorprim=9 / transfer=16 / colormatrix=9 / chromaloc=0 / display-window=0 / cll=0,0 / min-luma=0 / max-luma=1023 / log2-max-poc-lsb=8 / vui-timing-info / vui-hrd-info / slices=1 / no-opt-qp-pps / no-opt-ref-list-length-pps / no-multi-pass-opt-rps / scenecut-bias=0.00 / hist-threshold=0.01 / no-opt-cu-delta-qp / no-aq-motion / no-hdr10 / hdr10-opt / no-dhdr10-opt / no-idr-recovery-sei / analysis-reuse-level=0 / analysis-save-reuse-level=0 / analysis-load-reuse-level=0 / scale-factor=0 / refine-intra=0 / refine-inter=0 / refine-mv=1 / refine-ctu-distortion=0 / no-limit-sao / ctu-info=0 / no-lowpass-dct / refine-analysis-type=0 / copy-pic=1 / max-ausize-factor=1.0 / no-dynamic-refine / no-single-sei / no-hevc-aq / no-svt / no-field / qp-adaptation-range=1.00 / no-scenecut-aware-qpconformance-window-offsets / right=0 / bottom=0
Default : Yes
Forced : No
Color range : Limited
Color primaries : BT.2020
Transfer characteristics : PQ
Matrix coefficients : BT.2020 non-constant

Audio
ID : 2
Format : E-AC-3 JOC
Format/Info : Enhanced AC-3 with Joint Object Coding
Commercial name : Dolby Digital Plus with Dolby Atmos
Codec ID : A_EAC3
Duration : 1 h 43 min
Bit rate mode : Constant
Bit rate : 768 kb/s
Channel(s) : 6 channels
Channel layout : L R C LFE Ls Rs
Sampling rate : 48.0 kHz
Frame rate : 31.250 FPS (1536 SPF)
Compression mode : Lossy
Delay relative to video : 12 ms
Stream size : 340 MiB (2%)
Language : English
Service kind : Complete Main
Default : Yes
Forced : No
Complexity index : 16
Number of dynamic objects : 15
Bed channel count : 1 channel
Bed channel configuration : LFE

Text #1
ID : 3
Format : UTF-8
Codec ID : S_TEXT/UTF8
Codec ID/Info : UTF-8 Plain Text
Duration : 1 h 35 min
Bit rate : 72 b/s
Count of elements : 1371
Stream size : 50.5 KiB (0%)
Language : English
Default : No
Forced : No

Text #2
ID : 4
Format : UTF-8
Codec ID : S_TEXT/UTF8
Codec ID/Info : UTF-8 Plain Text
Duration : 1 h 35 min
Bit rate : 75 b/s
Count of elements : 1449
Stream size : 52.9 KiB (0%)
Title : SDH
Language : English
Default : No
Forced : No

Text #3
ID : 5
Format : UTF-8
Codec ID : S_TEXT/UTF8
Codec ID/Info : UTF-8 Plain Text
Duration : 1 h 32 min
Bit rate : 72 b/s
Count of elements : 1356
Stream size : 48.9 KiB (0%)
Language : Danish
Default : No
Forced : No

Text #4
ID : 6
Format : UTF-8
Codec ID : S_TEXT/UTF8
Codec ID/Info : UTF-8 Plain Text
Duration : 1 h 38 min
Bit rate : 65 b/s
Count of elements : 1357
Stream size : 47.3 KiB (0%)
Language : German
Default : No
Forced : No

Text #5
ID : 7
Format : UTF-8
Codec ID : S_TEXT/UTF8
Codec ID/Info : UTF-8 Plain Text
Duration : 1 h 38 min
Bit rate : 69 b/s
Count of elements : 1365
Stream size : 50.4 KiB (0%)
Title : Latin American
Language : Spanish
Default : No
Forced : No

Text #6
ID : 8
Format : UTF-8
Codec ID : S_TEXT/UTF8
Codec ID/Info : UTF-8 Plain Text
Duration : 1 h 38 min
Bit rate : 66 b/s
Count of elements : 1358
Stream size : 47.9 KiB (0%)
Language : Spanish
Default : No
Forced : No

Text #7
ID : 9
Format : UTF-8
Codec ID : S_TEXT/UTF8
Codec ID/Info : UTF-8 Plain Text
Duration : 1 h 38 min
Bit rate : 58 b/s
Count of elements : 1353
Stream size : 42.0 KiB (0%)
Language : Finnish
Default : No
Forced : No

Text #8
ID : 10
Format : UTF-8
Codec ID : S_TEXT/UTF8
Codec ID/Info : UTF-8 Plain Text
Duration : 1 h 38 min
Bit rate : 70 b/s
Count of elements : 1346
Stream size : 50.6 KiB (0%)
Language : French
Default : No
Forced : No

Text #9
ID : 11
Format : UTF-8
Codec ID : S_TEXT/UTF8
Codec ID/Info : UTF-8 Plain Text
Duration : 1 h 38 min
Bit rate : 70 b/s
Count of elements : 1299
Stream size : 50.6 KiB (0%)
Language : Italian
Default : No
Forced : No

Text #10
ID : 12
Format : UTF-8
Codec ID : S_TEXT/UTF8
Codec ID/Info : UTF-8 Plain Text
Duration : 1 h 38 min
Bit rate : 62 b/s
Count of elements : 1423
Stream size : 45.0 KiB (0%)
Language : Japanese
Default : No
Forced : No

Text #11
ID : 13
Format : UTF-8
Codec ID : S_TEXT/UTF8
Codec ID/Info : UTF-8 Plain Text
Duration : 1 h 38 min
Bit rate : 74 b/s
Count of elements : 1364
Stream size : 53.9 KiB (0%)
Language : Korean
Default : No
Forced : No

Text #12
ID : 14
Format : UTF-8
Codec ID : S_TEXT/UTF8
Codec ID/Info : UTF-8 Plain Text
Duration : 1 h 38 min
Bit rate : 60 b/s
Count of elements : 1112
Stream size : 43.7 KiB (0%)
Language : Dutch
Default : No
Forced : No

Text #13
ID : 15
Format : UTF-8
Codec ID : S_TEXT/UTF8
Codec ID/Info : UTF-8 Plain Text
Duration : 1 h 38 min
Bit rate : 59 b/s
Count of elements : 1356
Stream size : 43.3 KiB (0%)
Language : Norwegian
Default : No
Forced : No

Text #14
ID : 16
Format : UTF-8
Codec ID : S_TEXT/UTF8
Codec ID/Info : UTF-8 Plain Text
Duration : 1 h 38 min
Bit rate : 54 b/s
Count of elements : 1345
Stream size : 39.7 KiB (0%)
Language : Polish
Default : No
Forced : No

Text #15
ID : 17
Format : UTF-8
Codec ID : S_TEXT/UTF8
Codec ID/Info : UTF-8 Plain Text
Duration : 1 h 38 min
Bit rate : 68 b/s
Count of elements : 1358
Stream size : 49.8 KiB (0%)
Title : Brazilian
Language : Portuguese
Default : No
Forced : No

Text #16
ID : 18
Format : UTF-8
Codec ID : S_TEXT/UTF8
Codec ID/Info : UTF-8 Plain Text
Duration : 1 h 38 min
Bit rate : 73 b/s
Count of elements : 1357
Stream size : 52.8 KiB (0%)
Language : Portuguese
Default : No
Forced : No

Text #17
ID : 19
Format : UTF-8
Codec ID : S_TEXT/UTF8
Codec ID/Info : UTF-8 Plain Text
Duration : 1 h 38 min
Bit rate : 69 b/s
Count of elements : 1339
Stream size : 50.1 KiB (0%)
Language : Swedish
Default : No
Forced : No

Text #18
ID : 20
Format : UTF-8
Codec ID : S_TEXT/UTF8
Codec ID/Info : UTF-8 Plain Text
Duration : 1 h 38 min
Bit rate : 54 b/s
Count of elements : 1360
Stream size : 39.4 KiB (0%)
Language : Chinese
Default : No
Forced : No

Text #19
ID : 21
Format : UTF-8
Codec ID : S_TEXT/UTF8
Codec ID/Info : UTF-8 Plain Text
Duration : 1 h 38 min
Bit rate : 53 b/s
Count of elements : 1350
Stream size : 38.7 KiB (0%)
Title : Simplified
Language : Chinese
Default : No
Forced : No

Text #20
ID : 22
Format : UTF-8
Codec ID : S_TEXT/UTF8
Codec ID/Info : UTF-8 Plain Text
Duration : 1 h 32 min
Bit rate : 61 b/s
Count of elements : 1359
Stream size : 41.5 KiB (0%)
Title : Traditional
Language : Chinese
Default : No
Forced : No

Menu
01:34:19.319 : Credits





1 个附件 售价 大小 下载 时间

Timmy.Failure.Mistakes.Were.Made.2020.2160p.WEB-DL.x265.10bit.HDR.DDP5.1.Atmos-TEPES.torrent 0 金币 20.58K 441 次 2天前

#1楼
发帖时间:2021-11-25 11:51:17   |   回复数:1
popeye69
武林高手
感谢楼主分享。
2天前 #2楼
游客组