fg603603
一代宗师

[2020] [其他] [剧情] [WEB-1080P] 伤痕累累/瘀伤 Bruised.2020.1080p.WEBRip.x264-RARBG 2.53GB

-->

帖子完整标题:伤痕累累/瘀伤 Bruised.2020.1080p.WEBRip.x264-RARBG 2.53GB



◎译  名 伤痕累累/瘀伤/逆转擂台
◎片  名 Bruised
◎年  代 2020
◎产  地 美国,英国
◎类  别 剧情 / 运动
◎语  言 英语
◎上映日期 2020-09-12(多伦多电影节) / 2021-11-24(美国网络)
◎豆瓣评分 /10 from 0 users
◎豆瓣链接 https://movie.douban.com/subject/27044261/
◎片  长 129分钟
◎导  演 哈莉·贝瑞 Halle Berry
◎编  剧 Michelle Rosenfarb Michelle Rosenfarb
◎主  演 哈莉·贝瑞 Halle Berry
      斯蒂芬·亨德森 Stephen Henderson
      莱拉·罗兰 Lela Loren
      阿丹·坎托 Adan Canto
      沙米尔·安德森 Shamier Anderson
      安德莱内·列诺斯 Adriane Lenox
      尼古拉·尼克拉斐 Nikolai Nikolaeff
      马塞拉·伦茨·波普 Marcella Lentz-Pope
      丹妮·狄龙 Denny Dillon
      希拉·阿蒂姆 Sheila Atim
      威尔·布拉格罗夫 Will Blagrove
      瓦伦缇娜-舍甫琴科 Valentina Shevchenko
      罗伯特·约翰·加拉格尔 Robert John Gallagher
       Michele Karmin
      科里·卡斯特尔 Cory Kastle
      马科·查卡 Marko Caka
      大卫·冯·罗姆 David Von Roehm

◎标  签 美国 | 运动 | 体育 | HalleBerry | 剧情 | 2021 | Halle_Berry | 2020

◎简  介

  杰姬·贾斯蒂斯(哈莉·贝瑞饰)是一名综合格斗选手,但她不光彩地退出了这项运动。在那场格斗之后的数年里,她一直不太走运,终日在愤恨和懊悔中度过,最后被经纪人兼男友德西(阿丹·坎托饰)劝去参加一场残酷的地下格斗,并吸引了格斗联盟组织者(沙米尔·安德森饰)的注意,他承诺会让杰姬重回八角笼。但当曼尼(小丹尼·博伊德饰)出现在她家门口时,她将注定踏上一条冷暖自知的救赎之路:曼尼是她的儿子,生下来没多久就被她放弃了。
  
  《逆转擂台》是奥斯卡金像奖得主哈莉·贝瑞的导演处女作,主演阵容包括安德莱内·列诺斯、希拉·阿蒂姆、瓦伦缇娜·舍甫琴科和斯蒂芬·麦金利·亨德森,该故事讲述了一名格斗选手的励志之旅,在所有人都认为杰姬已被淘汰出局时,她在赛场内外都重新找回了自己的力量。

Video
ID : 1
Format : AVC
Format/Info : Advanced Video Codec
Format profile : [email protected]
Format settings : CABAC / 4 Ref Frames
Format settings, CABAC : Yes
Format settings, Reference frames : 4 frames
Codec ID : avc1
Codec ID/Info : Advanced Video Coding
Duration : 2 h 12 min
Bit rate : 2 500 kb/s
Width : 1 920 pixels
Height : 800 pixels
Display aspect ratio : 2.40:1
Frame rate mode : Constant
Frame rate : 23.976 (23976/1000/189150) FPS
Color space : YUV
Chroma subsampling : 4:2:0
Bit depth : 8 bits
Scan type : Progressive
Bits/(Pixel*Frame) : 0.068
Stream size : 2.31 GiB (92%)
Writing library : x264 core 152 r2851M ba24899
Encoding settings : cabac=1 / ref=4 / deblock=1:-1:-1 / analyse=0x3:0x113 / me=umh / subme=9 / psy=1 / psy_rd=1.00:0.15 / mixed_ref=1 / me_range=24 / chroma_me=1 / trellis=2 / 8x8dct=1 / cqm=0 / deadzone=21,11 / fast_pskip=1 / chroma_qp_offset=-3 / threads=16 / lookahead_threads=4 / sliced_threads=0 / nr=0 / decimate=1 / interlaced=0 / bluray_compat=0 / constrained_intra=0 / bframes=3 / b_pyramid=2 / b_adapt=2 / b_bias=0 / direct=3 / weightb=1 / open_gop=0 / weightp=2 / keyint=250 / keyint_min=25 / scenecut=40 / intra_refresh=0 / rc_lookahead=50 / rc=2pass / mbtree=1 / bitrate=2500 / ratetol=1.0 / qcomp=0.60 / qpmin=0 / qpmax=69 / qpstep=4 / cplxblur=20.0 / qblur=0.5 / vbv_maxrate=31250 / vbv_bufsize=31250 / nal_hrd=none / filler=0 / ip_ratio=1.40 / aq=3:1.00
Encoded date : UTC 2021-11-24 09:52:19
Tagged date : UTC 2021-11-24 09:52:19
Codec configuration box : avcC

Audio
ID : 2
Format : AAC LC
Format/Info : Advanced Audio Codec Low Complexity
Codec ID : mp4a-40-2
Duration : 2 h 12 min
Bit rate mode : Constant
Bit rate : 224 kb/s
Channel(s) : 6 channels
Channel layout : C L R Ls Rs LFE
Sampling rate : 48.0 kHz
Frame rate : 46.875 FPS (1024 SPF)
Compression mode : Lossy
Stream size : 213 MiB (8%)
Language : English
Default : Yes
Alternate group : 1
Encoded date : UTC 2021-11-24 09:52:19
Tagged date : UTC 2021-11-24 09:52:19





1 个附件 售价 大小 下载 时间

Bruised.2020.1080p.WEBRip.x264-RARBG.torrent 0 金币 27.24K 427 次 2天前

#1楼
发帖时间:2021-11-25 13:16:07   |   回复数:1
popeye69
武林高手
感谢楼主分享。
2天前 #2楼
游客组