fg603603
一代宗师

[更 早] [欧美] [剧情] [WEB-1080P] 碎钻石 Broken.Diamonds.2021.1080p.AMZN.WEBRip.DDP5.1.x264-TEPES 6.41GB

-->

帖子完整标题:碎钻石 Broken.Diamonds.2021.1080p.AMZN.WEBRip.DDP5.1.x264-TEPES 6.41GB



◎译  名 碎钻石/Love & Oatmeal/爱与燕麦
◎片  名 Broken Diamonds
◎年  代 2021
◎产  地 美国
◎类  别 剧情
◎语  言 英语
◎上映日期 2021-04-01(圣巴巴拉国际电影节) / 2021-07-23(美国)
◎豆瓣评分 /10 from 0 users
◎豆瓣链接 https://movie.douban.com/subject/30159266/
◎片  长 90分钟
◎导  演 彼得·萨特勒 Peter Sattler
◎主  演 本·普拉特 Ben Platt
      琳达·博伊德 Lynda Boyd
      伊薇特·尼科尔·布朗 Yvette Nicole Brown
      罗拉·科克 Lola Kirke
      彼得·本森 Peter Benson
      戴博斯·霍华德 Debs Howard
      凯瑟琳·拉夫·哈格奎斯特 Catherine Lough Haggquist
      阿方索·麦考利 Alphonso McAuley
      克里斯汀·李 Christine Lee
      查德·威列 Chad Willett
      林赛·麦克斯维尔 Lindsay Maxwell
      杰森·麦金农 Jason McKinnon
      爱德华·拉特尔 Edward Ruttle

◎标  签 美国 | 剧情 | 美国电影 | 空中影院 | 爱情 | 文艺 | 家庭 | WK

◎简  介

  本·普拉特(《致埃文·汉森》)将主演新片《爱与燕麦》(Love & Oatmeal),彼得·萨特勒《X射线营地》执导,Steve Waverly(《爱之罪》)编写剧本。剧情讲述一个20多岁有抱负的编剧在父亲意外去世后,他前往巴黎的梦想暂时搁浅,不得不接过照料他极其不可预知、有精神疾病的妹妹的重担。该片预计初夏开拍,Molly Smith, Rachel Smith, Thad Luckinbill等制片。

Video
ID : 1
Format : AVC
Format/Info : Advanced Video Codec
Format profile : [email protected]
Format settings : CABAC / 4 Ref Frames
Format settings, CABAC : Yes
Format settings, Reference frames : 4 frames
Codec ID : V_MPEG4/ISO/AVC
Duration : 1 h 30 min
Bit rate mode : Constant
Bit rate : 9 520 kb/s
Nominal bit rate : 10 000 kb/s
Width : 1 920 pixels
Height : 1 080 pixels
Display aspect ratio : 16:9
Frame rate mode : Constant
Frame rate : 23.976 (24000/1001/189150) FPS
Color space : YUV
Chroma subsampling : 4:2:0
Bit depth : 8 bits
Scan type : Progressive
Bits/(Pixel*Frame) : 0.191
Stream size : 6.00 GiB (94%)
Default : Yes
Forced : No
Color range : Limited
Color primaries : BT.709
Transfer characteristics : BT.709
Matrix coefficients : BT.709

Audio
ID : 2
Format : E-AC-3
Format/Info : Enhanced AC-3
Commercial name : Dolby Digital Plus
Codec ID : A_EAC3
Duration : 1 h 30 min
Bit rate mode : Constant
Bit rate : 640 kb/s
Channel(s) : 6 channels
Channel layout : L R C LFE Ls Rs
Sampling rate : 48.0 kHz
Frame rate : 31.250 FPS (1536 SPF)
Compression mode : Lossy
Stream size : 413 MiB (6%)
Language : English
Service kind : Complete Main
Default : Yes
Forced : No

Text #1
ID : 3
Format : UTF-8
Codec ID : S_TEXT/UTF8
Codec ID/Info : UTF-8 Plain Text
Duration : 1 h 29 min
Bit rate : 97 b/s
Count of elements : 1796
Stream size : 63.5 KiB (0%)
Language : English
Default : No
Forced : No

Text #2
ID : 4
Format : UTF-8
Codec ID : S_TEXT/UTF8
Codec ID/Info : UTF-8 Plain Text
Duration : 1 h 30 min
Bit rate : 213 b/s
Count of elements : 1893
Stream size : 141 KiB (0%)
Title : SDH
Language : English
Default : No
Forced : No





1 个附件 售价 大小 下载 时间

Broken.Diamonds.2021.1080p.AMZN.WEBRip.DDP5.1.x264-TEPES.torrent 0 金币 16.66K 441 次 2天前

#1楼
发帖时间:2021-11-25 15:00:55   |   回复数:1
popeye69
武林高手
感谢楼主分享。
2天前 #2楼
游客组