topgood
一派掌门

[更 早] [其他] [喜剧] [BD-4K] 王牌保镖2 The.Hitmans.Wifes.Bodyguard.2021.EXTENDED.2160p.BluRay.x264.8bit.SDR.DTS-H

-->

帖子完整标题:王牌保镖2 The.Hitmans.Wifes.Bodyguard.2021.EXTENDED.2160p.BluRay.x264.8bit.SDR.DTS-HD.MA.TrueHD.7.1-SWTYBLZ 54.74GB



◎译  名 王牌保镖2/The Hitman's Bodyguard 2/保镖救杀手2(港)/杀手妻子的保镖
◎片  名 The Hitman's Wife's Bodyguard
◎年  代 2021
◎产  地 美国,英国
◎类  别 喜剧 / 动作 / 犯罪
◎语  言 英语
◎上映日期 2021-06-16(美国)
◎豆瓣评分 6.3/10 from 19805 users
◎豆瓣链接 https://movie.douban.com/subject/30216729/
◎片  长 116分钟
◎导  演 帕特里克·休斯 Patrick Hughes
◎编  剧 汤姆·奥康纳 Tom O'Connor / 布兰登·墨菲 Brandon Murphy / 菲利普·墨菲 Phillip Murphy
◎主  演 瑞安·雷诺兹 Ryan Reynolds
      塞缪尔·杰克逊 Samuel L. Jackson
      萨尔玛·海耶克 Salma Hayek
      弗兰克·格里罗 Frank Grillo
      理查德·E·格兰特 Richard E. Grant
      安东尼奥·班德拉斯 Antonio Banderas
      摩根·弗里曼 Morgan Freeman
      斯图尔特·亚历山大 Stewart Alexander
      早乙女津和雪 Tsuwayuki Saotome
      丽贝卡·弗朗特 Rebecca Front
      诺杰·赫拉尔 Noortje Herlaar
      迈克尔·戈尔 Michael Gor
      乔治·格伦 Georgie Glen
      巴里·阿茨玛 Barry Atsma
      蒂内·朱斯特拉 Tine Joustra
      加里·奥德曼 Gary Oldman
      玛丽安娜·维基尔斯卡 Mariana Vekilska
      布莱恩·卡斯佩 Brian Caspe
      丹柯·约尔丹诺夫 Danko Jordanov
      西蒙·安德鲁 Simón Andreu
      塞尔吉奥·托里科 Sergio Torrico
      布莱克·瑞特森 Blake Ritson
      汤姆·霍珀 Tom Hopper
      加布里埃拉·赖特 Gabriella Wright
      卡罗琳·古多尔 Caroline Goodall
      爱丽丝·麦克米兰 Alice McMillan
      伊万·朱里奇 Ivan Djuricic
      米尔托斯·耶罗勒曼 Miltos Yerolemou
      帕特里克·休斯 Patrick Hughes
      德拉甘·米恰诺维奇 Dragan Mi?anovi?
      托米·梅 Tomi May
      乔纳斯·塔金顿 Jonas Talkington
      小恩佐·斯奎利诺 Enzo Squillino Jr.
      吉欧里奥·贝鲁蒂 Giulio Berruti
      鲁道夫·科萨托 Rodolfo Corsato
      卡蒙提普·克里希·阿什顿 Kamontip Krissy Ashton
      贝卡·宝陵 Bekka Bowling
      贝恩·科拉科 Bern Colla?o
      内森·库珀 Nathan Cooper
      罗杰·金 Roger King
      阿德南·昆迪 Adnan Kundi
      马雷克·里奇滕博格 Marek Lichtenberg
      希滕·珀泰尔 Hiten Patel
      佩特拉·武凯利奇 Petra Vukelic
      Harry Taurasi Harry Taurasi
      Amar Bukvic Amar Bukvic
      Csilla Barath-Bastaic Csilla Barath-Bastaic
      James Maclurcan James Maclurcan

◎标  签 喜剧 | 动作 | 美国 | 犯罪 | 2021 | 电影 | 欧美 | 電影

◎简  介

  这对世上最要命的混搭-——保镖迈克尔·布莱斯和杀手大流士·金凯,再次执行一项要命任务。
  
  大流士反复无常更胜以往的妻子——臭名昭著的国际诈骗家索尼娅·金凯迫使布莱斯出山。
  
  布莱斯被这俩最危险的保护对象逼得走投无路,三人在一个全球级的阴谋中陷入困境,很快还发现他们是一个大疯子复仇欧洲的唯一障碍。
  
  摩根·弗里曼也加入了这场有趣而又致命的乱局,他饰演的是——嗯,不得不看。

Video
ID : 1
Format : AVC
Format/Info : Advanced Video Codec
Format profile : [email protected]
Format settings : CABAC / 5 Ref Frames
Format settings, CABAC : Yes
Format settings, Reference frames : 5 frames
Codec ID : V_MPEG4/ISO/AVC
Duration : 1 h 57 min
Bit rate : 59.7 Mb/s
Width : 3 840 pixels
Height : 1 606 pixels
Display aspect ratio : 2.40:1
Frame rate mode : Constant
Frame rate : 23.976 (24000/1001/189150) FPS
Color space : YUV
Chroma subsampling : 4:2:0
Bit depth : 8 bits
Scan type : Progressive
Bits/(Pixel*Frame) : 0.404
Stream size : 48.8 GiB (90%)
Writing library : x264 core 157 r2935 545de2f
Encoding settings : cabac=1 / ref=5 / deblock=1:-1:-1 / analyse=0x3:0x113 / me=umh / subme=10 / psy=1 / psy_rd=1.00:0.15 / mixed_ref=1 / me_range=48 / chroma_me=1 / trellis=2 / 8x8dct=1 / cqm=0 / deadzone=21,11 / fast_pskip=1 / chroma_qp_offset=-3 / threads=50 / lookahead_threads=4 / sliced_threads=0 / nr=0 / decimate=0 / interlaced=0 / bluray_compat=0 / constrained_intra=0 / bframes=3 / b_pyramid=2 / b_adapt=2 / b_bias=0 / direct=3 / weightb=1 / open_gop=0 / weightp=2 / keyint=250 / keyint_min=23 / scenecut=40 / intra_refresh=0 / rc_lookahead=50 / rc=crf / mbtree=1 / crf=18.0 / qcomp=0.60 / qpmin=0 / qpmax=69 / qpstep=4 / ip_ratio=1.40 / aq=1:1.00
Default : Yes
Forced : No

Audio #1
ID : 2
ID in the original source medium : 4353 (0x1101)
Format : MLP FBA
Format/Info : Meridian Lossless Packing FBA
Commercial name : Dolby TrueHD
Codec ID : A_TRUEHD
Duration : 1 h 56 min
Bit rate mode : Variable
Bit rate : 2 317 kb/s
Maximum bit rate : 4 011 kb/s
Channel(s) : 8 channels
Channel layout : L R C LFE Ls Rs Lb Rb
Sampling rate : 48.0 kHz
Frame rate : 1 200.000 FPS (40 SPF)
Bit depth : 24 bits
Compression mode : Lossless
Stream size : 1.89 GiB (3%)
Title : TrueHD 7.1 Atmos
Language : English
Default : Yes
Forced : No
Original source medium : Blu-ray

Audio #2
ID : 3
Format : DTS XLL
Format/Info : Digital Theater Systems
Commercial name : DTS-HD Master Audio
Codec ID : A_DTS
Duration : 1 h 56 min
Bit rate mode : Variable
Bit rate : 3 866 kb/s
Channel(s) : 8 channels
Channel layout : C L R LFE Lb Rb Lss Rss
Sampling rate : 48.0 kHz
Frame rate : 93.750 FPS (512 SPF)
Bit depth : 24 bits
Compression mode : Lossless
Stream size : 3.15 GiB (6%)
Title : DTS-HD MA 7.1
Language : English
Default : No
Forced : No

Audio #3
ID : 4
ID in the original source medium : 4353 (0x1101)
Format : AC-3
Format/Info : Audio Coding 3
Commercial name : Dolby Digital
Codec ID : A_AC3
Duration : 1 h 56 min
Bit rate mode : Constant
Bit rate : 640 kb/s
Channel(s) : 6 channels
Channel layout : L R C LFE Ls Rs
Sampling rate : 48.0 kHz
Frame rate : 31.250 FPS (1536 SPF)
Compression mode : Lossy
Stream size : 534 MiB (1%)
Title : DD 5.1
Language : English
Service kind : Complete Main
Default : No
Forced : No
Original source medium : Blu-ray

Text #1
ID : 5
Format : UTF-8
Codec ID : S_TEXT/UTF8
Codec ID/Info : UTF-8 Plain Text
Duration : 1 h 49 min
Bit rate : 78 b/s
Count of elements : 2036
Stream size : 62.9 KiB (0%)
Language : English
Default : Yes
Forced : No

Text #2
ID : 6
ID in the original source medium : 4768 (0x12A0)
Format : PGS
Muxing mode : zlib
Codec ID : S_HDMV/PGS
Codec ID/Info : Picture based subtitle format used on BDs/HD-DVDs
Duration : 1 h 55 min
Bit rate : 43.6 kb/s
Count of elements : 3148
Stream size : 36.1 MiB (0%)
Language : German
Default : No
Forced : No
Original source medium : Blu-ray

Menu
00:00:00.000 : en:Chapter 01
00:09:14.554 : en:Chapter 02
00:19:36.842 : en:Chapter 03
00:25:43.208 : en:Chapter 04
00:35:08.940 : en:Chapter 05
00:44:45.808 : en:Chapter 06
00:52:23.265 : en:Chapter 07
01:00:23.411 : en:Chapter 08
01:10:33.562 : en:Chapter 09
01:20:08.136 : en:Chapter 10
01:29:05.006 : en:Chapter 11
01:41:09.521 : en:Chapter 12





1 个附件 售价 大小 下载 时间

The.Hitmans.Wifes.Bodyguard.2021.EXTENDED.2160p.BluRay.x264.8bit.SDR.DTS-HD.MA.TrueHD.7.1-SWTYBLZ.torrent 0 金币 69.22K 1799 次 2天前

#1楼
发帖时间:2021-11-25 20:36:41   |   回复数:2
popeye69
武林高手
谢谢楼主分享。
2天前 #2楼
feung18
武林高手
谢谢分享
1天前 #3楼
游客组