travismk
一代宗师

[2008] [其他] [剧情] [BD-1080P] 巴德尔和迈因霍夫集团 The.Baader.Meinhof.Complex.2008.GERMAN.EXTENDED.1080p.BluRay.x264-WAT

-->

帖子完整标题:巴德尔和迈因霍夫集团 The.Baader.Meinhof.Complex.2008.GERMAN.EXTENDED.1080p.BluRay.x264-WATCHABLE 22.51GB



◎译  名 巴德尔和迈因霍夫集团/The Baader Meinhof Complex
◎片  名 Der Baader Meinhof Komplex
◎年  代 2008
◎产  地 德国/法国/捷克
◎类  别 剧情 / 动作 / 传记 / 历史 / 犯罪
◎语  言 德语,英语,法语,瑞典语
◎上映日期 2008-09-25
◎豆瓣评分 7.8/10 from 3421 users
◎豆瓣链接 https://movie.douban.com/subject/2298609/
◎片  长 150 分钟
◎导  演 乌利·埃德尔 Uli Edel
◎编  剧 斯戴芬·奥斯特 Stefan Aust / 乌利·埃德尔 Uli Edel / 贝尔恩德·艾辛格 Bernd Eichinger
◎主  演 马蒂娜·格德克 Martina Gedeck
      莫里兹·布雷多 Moritz Bleibtreu
      约翰娜·沃卡莱克 Johanna Wokalek
      Kim Frank Kim Frank
      利奥波德·霍尔农 Leopold Hornung
      Leonie Brandis Leonie Brandis
      Ben Braun Ben Braun
      塞巴斯蒂安·鲁格 Sebastian Rüger
      Stephan M?ller-Titel Stephan M?ller-Titel
      尼尔斯-布鲁诺·施密特 Niels-Bruno Schmidt
      Martin Walch Martin Walch
      安娜·塔巴赫 Anna Thalbach
      托马斯·蒂梅 Thomas Thieme
      Ralph Kretschmar Ralph Kretschmar
      Nina Eichinger Nina Eichinger
      法拉赫·巴列维 Empress Farah
      史蒂芬·梅耶-科尔霍夫 Stephan Meyer-Kohlhoff
      雅各布·迪尔 Jakob Diehl
      布里塔·哈梅尔施泰因 Britta Hammelstein
      Martin Glade Martin Glade
      克斯腾·布劳克 Kirsten Block
       Joel Cross
       Jan Haufe
       Adam Jaskolka
       Paul Schwesig
      贝恩德·斯特格曼 Bernd Stegemann
      Elisabeth Schwarz Elisabeth Schwarz
      卡塔琳娜·瓦克纳格尔 Katharina Wackernagel
      苏珊妮·博曼 Susanne Bormann
      海诺·费尔希 Heino Ferch
      扬·约瑟夫·利费斯 Jan Josef Liefers
      卡罗·柳别克 Carlo Ljubek
      塞巴斯蒂安·布隆贝格 Sebastian Blomberg
      贾思敏·塔巴塔拜 Jasmin Tabatabai
      纳嘉·乌尔 Nadja Uhl
      米夏埃尔·格维斯戴克 Michael Gwisdek
      文森兹·凯弗 Vinzenz Kiefer
      汤姆·希林 Tom Schilling
      汉斯·沃那·麦耶 Hans Werner Meyer
      沃尔克·布鲁赫 Volker Bruch
      杰拉德·亚历山大·海德 Gerald Alexander Held
      Christian Schmidt Christian Schmidt
      Jona Mues Jona Mues
      Wolfgang Pregler Wolfgang Pregler
      松妮·梅勒斯 Sunnyi Melles
      西蒙·利希特 Simon Licht
      Norbert Hülm Norbert Hülm
      桑德拉·伯格曼 Sandra Borgmann
      Andreas Borcherding Andreas Borcherding
      约阿希姆·保罗·阿斯波克 Joachim Paul Assb?ck
      汉娜·赫茨施普龙 Hannah Herzsprung
      斯坦奇·艾塞克 Stipe Erceg
      亚历山德拉·玛丽亚·拉娜 Alexandra Maria Lara
      迈克尔·施内克 Michael Schenk
      布鲁诺·冈茨 Bruno Ganz

◎简  介

  本片讲述了1970年代德国极左恐怖组织“红军支队”的兴衰史。由安德里亚斯·巴德尔(莫里兹·布雷多 Moritz Bleibtreu饰)和乌尔丽克·迈因霍夫(马蒂娜·戈黛特 Martina Gedeck饰)领导的德国无政府主义组织“红军支队”,从1972年开始一直从事极左的恐怖活动。在标榜以德国“国家道德腐败”的名义下,该组织试图创建一个更加人性化的社会体制。然而他们正是用以暴制暴的方式,犯下了多起暗杀、爆炸攻击以及绑架的罪行,所谓的人性在嗜血成性的恐怖事件当中消失殆尽。
  
  影片根据记者斯特凡·奥斯特80年代的畅销书改编而成,荣获2009年第81届奥斯卡金像奖最佳外语片提名,2009年第66届金球奖电影类-最佳外语片提名,2009年第22届欧洲电影奖最佳男演员提名等多项大奖。

◎获奖情况

  第81届奥斯卡金像奖 ?(2009)
  最佳外语片(提名) 乌利·埃德尔
  
  第66届金球奖 ?(2009)
  电影类最佳外语片(提名)
  
  第22届欧洲电影奖 ?(2009)
  观众选择奖(提名)
  最佳男主角(提名) 莫里兹·布雷多
  费比西-杰出成就奖(提名) 沃德马尔·波克罗姆斯基

Video
ID : 1
Format : AVC
Format/Info : Advanced Video Codec
Format profile : [email protected]
Format settings : CABAC / 4 Ref Frames
Format settings, CABAC : Yes
Format settings, Reference frames : 4 frames
Codec ID : V_MPEG4/ISO/AVC
Duration : 2 h 44 min
Bit rate : 15.7 Mb/s
Width : 1 920 pixels
Height : 1 040 pixels
Display aspect ratio : 1.85:1
Frame rate mode : Constant
Frame rate : 23.976 (24000/1001/189150) FPS
Color space : YUV
Chroma subsampling : 4:2:0
Bit depth : 8 bits
Scan type : Progressive
Bits/(Pixel*Frame) : 0.328
Stream size : 18.0 GiB (80%)
Writing library : x264 core 164 r3081 19856cc
Encoding settings : cabac=1 / ref=4 / deblock=1:-3:-3 / analyse=0x3:0x133 / me=umh / subme=9 / psy=1 / psy_rd=1.00:0.00 / mixed_ref=1 / me_range=16 / chroma_me=1 / trellis=2 / 8x8dct=1 / cqm=0 / deadzone=21,11 / fast_pskip=0 / chroma_qp_offset=-2 / threads=24 / lookahead_threads=2 / sliced_threads=0 / nr=0 / decimate=0 / interlaced=0 / bluray_compat=0 / constrained_intra=0 / bframes=3 / b_pyramid=2 / b_adapt=2 / b_bias=0 / direct=1 / weightb=1 / open_gop=0 / weightp=2 / keyint=250 / keyint_min=23 / scenecut=40 / intra_refresh=0 / rc_lookahead=60 / rc=crf / mbtree=0 / crf=22.0 / qcomp=0.60 / qpmin=0 / qpmax=69 / qpstep=4 / vbv_maxrate=62500 / vbv_bufsize=78125 / crf_max=0.0 / nal_hrd=none / filler=0 / ip_ratio=1.40 / pb_ratio=1.30 / aq=3:0.70
Default : Yes
Forced : No
Color range : Limited
Matrix coefficients : BT.709

Audio
ID : 2
Format : MLP FBA 16-ch
Format/Info : Meridian Lossless Packing FBA with 16-channel presentation
Commercial name : Dolby TrueHD with Dolby Atmos
Codec ID : A_TRUEHD
Duration : 2 h 44 min
Bit rate mode : Variable
Bit rate : 3 794 kb/s
Maximum bit rate : 6 471 kb/s
Channel(s) : 8 channels
Channel layout : L R C LFE Ls Rs Lb Rb
Sampling rate : 48.0 kHz
Frame rate : 1 200.000 FPS (40 SPF)
Compression mode : Lossless
Stream size : 4.36 GiB (19%)
Language : German
Default : Yes
Forced : No
Number of dynamic objects : 13
Bed channel count : 1 channel
Bed channel configuration : LFE

Text #1
ID : 3
Format : UTF-8
Codec ID : S_TEXT/UTF8
Codec ID/Info : UTF-8 Plain Text
Duration : 2 h 37 min
Bit rate : 61 b/s
Count of elements : 1869
Stream size : 70.6 KiB (0%)
Title : English Full Subtitles
Language : English
Default : Yes
Forced : Yes

Text #2
ID : 4
Format : PGS
Muxing mode : zlib
Codec ID : S_HDMV/PGS
Codec ID/Info : Picture based subtitle format used on BDs/HD-DVDs
Duration : 2 h 37 min
Bit rate : 35.4 kb/s
Count of elements : 3738
Stream size : 39.8 MiB (0%)
Title : English Full Subtitles
Language : English
Default : No
Forced : No

Text #3
ID : 5
Format : PGS
Muxing mode : zlib
Codec ID : S_HDMV/PGS
Codec ID/Info : Picture based subtitle format used on BDs/HD-DVDs
Duration : 2 h 37 min
Bit rate : 39.8 kb/s
Count of elements : 3784
Stream size : 44.8 MiB (0%)
Title : German Full Subtitles
Language : German
Default : No
Forced : No

Menu
00:00:00.000 : en:Chapter 01
00:10:01.184 : en:Chapter 02
00:21:08.392 : en:Chapter 03
00:28:44.598 : en:Chapter 04
00:38:24.302 : en:Chapter 05
00:54:10.581 : en:Chapter 06
01:03:14.082 : en:Chapter 07
01:15:29.817 : en:Chapter 08
01:23:14.531 : en:Chapter 09
01:33:29.646 : en:Chapter 10
01:44:39.648 : en:Chapter 11
01:52:15.103 : en:Chapter 12
02:03:26.024 : en:Chapter 13
02:12:00.079 : en:Chapter 14
02:23:53.083 : en:Chapter 15
02:36:57.283 : en:Chapter 16





1 个附件 售价 大小 下载 时间

The.Baader.Meinhof.Complex.2008.GERMAN.EXTENDED.1080p.BluRay.x264-WATCHABLE.torrent 0 金币 28.88K 1022 次 1天前

#1楼
发帖时间:2022-01-15 09:03:44   |   回复数:0
游客组