travismk
一代宗师

[2009] [其他] [剧情] [BD-1080P] 白银帝国 Empire.of.Silver.2009.CHINESE.1080p.BluRay.x264.DD5.1-c0kE 12.92GB

-->

帖子完整标题:白银帝国 Empire.of.Silver.2009.CHINESE.1080p.BluRay.x264.DD5.1-c0kE 12.92GB



◎译  名 Empire of Silver
◎片  名 白银帝国
◎年  代 2009
◎产  地 中国大陆,中国台湾,中国香港
◎类  别 剧情 / 历史 / 古装
◎语  言 普通话/国语,英语
◎上映日期 2009-08-21(中国大陆)
◎豆瓣评分 6.3/10 from 36593 users
◎豆瓣链接 https://movie.douban.com/subject/3445526/
◎片  长 116分钟
◎导  演 姚树华 Christina Yao
◎编  剧 姚树华 Christina Yao / 成一 Cheng Yi
◎主  演 郭富城 Aaron Kwok
      郝蕾 Lei Hao
      张铁林 Tielin Zhang
      詹妮弗·提莉 Jennifer Tilly
      金士杰 Shih-Chieh King
      恬妞 Niu Tien
      丁志城 Zhicheng Ding
      雷镇语 Zhenyu Lei
      吕中 Zhong Lü
      李依晓 Xiaoyi Li
      刘仲元 Zhongyuan Liu
      曹操 Jonathan Kos-Read
      常蓝天 Lantian Chang
      侯桐江 Tongjiang Hou
      王德顺 Deshun Wang

◎简  介

  本片以清末民初富可敌国的山西天成元票号的传承为主线,再现了“中国华尔街”金融业的百年兴衰。故事以一个风烛残年老人的回忆贯穿全片:天成元掌门人康老爷(张铁林 饰)膝下共有四子,但老大天生罹患聋哑残疾,老二生性莽撞好斗在一次意外中下肢瘫痪,老四因新婚娇妻在天津被劫惨死而疯癫,只剩下老三(郭富城 饰)可以继承祖宗家业。但康三却对父亲抱有深深的怨恨,原因是他夺走了自己昔日恋人(郝蕾 饰)。
  
  康老爷希望她可以为康家添丁,继承香火,但是她誓死不从。康夫人曾多次对康三表露心迹,但后者始终对继母礼让三分,不敢越雷池半步。康老爷见北京分号戴掌柜才智过人,遂恩威并用计赚邱掌柜(丁志诚 饰),令其死心塌地辅佐少主,然而康三心中却另有打算……
  
  本片根据成一的小说《白银谷》改编。

◎获奖情况

  第29届香港电影金像奖 ?(2010)
  最佳摄影(提名) 潘耀明
  最佳美术指导(提名) 姚树华?/?奚仲文?/?张季平
  最佳服装造型设计(提名) 谭英群?/?奚仲文?/?文润铃?/?戴美玲
  
  第12届上海国际电影节 ?(2009)
  金爵奖最佳影片(提名) 姚树华
  金爵奖评审团奖 姚树华
  电影频道传媒大奖最佳影片(提名) 姚树华
  
  第27届中国电影金鸡奖 ?(2009)
  最佳摄影(提名) 潘耀明
  
  第13届中国电影华表奖 ?(2009)
  优秀境外华裔男演员奖(提名) 郭富城
  优秀合拍片奖(提名)

Video
ID : 1
Format : AVC
Format/Info : Advanced Video Codec
Format profile : [email protected]
Format settings : CABAC / 5 Ref Frames
Format settings, CABAC : Yes
Format settings, Reference frames : 5 frames
Codec ID : V_MPEG4/ISO/AVC
Duration : 1 h 53 min
Bit rate : 15.7 Mb/s
Width : 1 920 pixels
Height : 816 pixels
Display aspect ratio : 2.35:1
Frame rate mode : Constant
Frame rate : 23.976 (24000/1001/189150) FPS
Color space : YUV
Chroma subsampling : 4:2:0
Bit depth : 8 bits
Scan type : Progressive
Bits/(Pixel*Frame) : 0.419
Stream size : 12.4 GiB (96%)
Title : Bai yin di guo (2009) / c0kE
Writing library : x264 core 164 r3075+55M 97d28bb t_mod_New [(8 & 10)[email protected] X86_64]
Encoding settings : cabac=1 / ref=5 / deblock=1:-3:-3 / analyse=0x3:0x133 / me=umh / subme=10 / psy=1 / fade_compensate=0.00 / psy_rd=1.00:0.00 / mixed_ref=1 / me_range=32 / chroma_me=1 / trellis=2 / 8x8dct=1 / cqm=0 / deadzone=21,11 / fast_pskip=0 / chroma_qp_offset=-2 / threads=12 / lookahead_threads=2 / sliced_threads=0 / nr=0 / decimate=0 / interlaced=0 / bluray_compat=0 / constrained_intra=0 / fgo=0 / bframes=9 / b_pyramid=2 / b_adapt=2 / b_bias=0 / direct=3 / weightb=1 / open_gop=0 / weightp=2 / keyint=250 / keyint_min=23 / scenecut=40 / intra_refresh=0 / rc_lookahead=60 / rc=crf / mbtree=0 / crf=19.2000 / qcomp=0.65 / qpmin=0:0:0 / qpmax=69:69:69 / qpstep=4 / vbv_maxrate=62500 / vbv_bufsize=78125 / crf_max=0.0 / nal_hrd=none / filler=0 / ip_ratio=1.30 / pb_ratio=1.20 / aq=3:0.70 / aq-sensitivity=10.00 / aq-factor=1.00:1.00:1.00 / aq2=0 / aq3=0
Language : Multiple languages
Default : Yes
Forced : No
Color range : Limited
Color primaries : BT.709
Matrix coefficients : BT.709

Audio
ID : 2
Format : AC-3
Format/Info : Audio Coding 3
Commercial name : Dolby Digital
Codec ID : A_AC3
Duration : 1 h 53 min
Bit rate mode : Constant
Bit rate : 640 kb/s
Channel(s) : 6 channels
Channel layout : L R C LFE Ls Rs
Sampling rate : 48.0 kHz
Frame rate : 31.250 FPS (1536 SPF)
Compression mode : Lossy
Stream size : 517 MiB (4%)
Language : Chinese
Service kind : Complete Main
Default : Yes
Forced : No

Text #1
ID : 3
Format : UTF-8
Codec ID : S_TEXT/UTF8
Codec ID/Info : UTF-8 Plain Text
Duration : 1 h 29 min
Bit rate : 2 b/s
Count of elements : 56
Stream size : 1.52 KiB (0%)
Title : For English dialogue/titles
Language : Chinese
Default : Yes
Forced : Yes

Text #2
ID : 4
Format : UTF-8
Codec ID : S_TEXT/UTF8
Codec ID/Info : UTF-8 Plain Text
Duration : 1 h 44 min
Bit rate : 36 b/s
Count of elements : 957
Stream size : 27.7 KiB (0%)
Title : OCR\'d by c0kE
Language : English
Default : No
Forced : No

Text #3
ID : 5
Format : UTF-8
Codec ID : S_TEXT/UTF8
Codec ID/Info : UTF-8 Plain Text
Duration : 1 h 47 min
Bit rate : 50 b/s
Count of elements : 1095
Stream size : 39.9 KiB (0%)
Language : Vietnamese
Default : No
Forced : No

Menu
00:00:00.000 : Chapter 01
00:07:15.477 : Chapter 02
00:14:05.470 : Chapter 03
00:21:57.107 : Chapter 04
00:26:44.144 : Chapter 05
00:34:07.337 : Chapter 06
00:40:42.273 : Chapter 07
00:47:04.488 : Chapter 08
00:52:57.257 : Chapter 09
01:00:22.160 : Chapter 10
01:07:25.124 : Chapter 11
01:12:37.395 : Chapter 12
01:21:20.167 : Chapter 13
01:29:50.343 : Chapter 14
01:42:41.197 : Chapter 15
01:46:54.241 : Chapter 16





1 个附件 售价 大小 下载 时间

Empire.of.Silver.2009.CHINESE.1080p.BluRay.x264.DD5.1-c0kE.torrent 0 金币 16.79K 3584 次 1天前

#1楼
发帖时间:2022-01-15 09:13:00   |   回复数:1
liyouchai
隐世仙人♂
谢谢楼主分享资源
1天前 #2楼
游客组