travismk
一代宗师

[2014] [其他] [剧情] [BD-1080P] 黑色灵魂 Black.Souls.2014.ITALIAN.1080p.BluRay.x264.DD5.1-EA 14.00GB

-->

帖子完整标题:黑色灵魂 Black.Souls.2014.ITALIAN.1080p.BluRay.x264.DD5.1-EA 14.00GB



◎译  名 黑色灵魂/Black Souls/教父启示录
◎片  名 Anime nere
◎年  代 2014
◎产  地 意大利,法国
◎类  别 剧情
◎语  言 意大利语
◎上映日期 2014-08-29(威尼斯电影节) / 2014-09-18(意大利)
◎豆瓣评分 6.6/10 from 374 users
◎豆瓣链接 https://movie.douban.com/subject/25934597/
◎片  长 103分钟
◎导  演 弗兰西斯科·穆尼兹 Francesco Munzi
◎编  剧 弗兰西斯科·穆尼兹 Francesco Munzi
◎主  演 马克·莱昂纳蒂 Marco Leonardi
      巴博拉·伯布洛瓦 Barbora Bobulova
      奥罗拉·夸特罗基 Aurora Quattrocchi

◎简  介

  影片以意大利南部卡拉布里亚地区为背景,讲述了与黑手党组织光荣会相关的家族情仇。故事讲述鲁奇阿诺在乡间过着牧羊和种植蔬菜的农夫生活,刻意远离当地黑手党的血腥。多年前,同样务农的父亲被对立派谋杀。两个兄弟则选择了不同的道路..

◎获奖情况

  第71届威尼斯电影节 ?(2014)
  主竞赛单元金狮奖(提名) 弗兰西斯科·穆尼兹

Video
ID : 1
Format : AVC
Format/Info : Advanced Video Codec
Format profile : [email protected]
Format settings : CABAC / 5 Ref Frames
Format settings, CABAC : Yes
Format settings, Reference frames : 5 frames
Codec ID : V_MPEG4/ISO/AVC
Duration : 1 h 48 min
Bit rate : 17.8 Mb/s
Width : 1 920 pixels
Height : 852 pixels
Display aspect ratio : 2.25:1
Frame rate mode : Constant
Frame rate : 24.000 FPS
Color space : YUV
Chroma subsampling : 4:2:0
Bit depth : 8 bits
Scan type : Progressive
Bits/(Pixel*Frame) : 0.453
Stream size : 13.5 GiB (97%)
Title : -EA
Writing library : x264 core 148 r2597+53 5548565 t_mod_Custom [[email protected] X86_64]
Encoding settings : cabac=1 / ref=5 / deblock=1:-3:-3 / analyse=0x3:0x113 / me=umh / subme=10 / psy=1 / fade_compensate=0.00 / psy_rd=1.08:0.00 / mixed_ref=1 / me_range=32 / chroma_me=1 / trellis=2 / 8x8dct=1 / cqm=0 / deadzone=21,11 / fast_pskip=0 / chroma_qp_offset=-2 / threads=24 / lookahead_threads=6 / sliced_threads=0 / nr=0 / decimate=0 / interlaced=0 / bluray_compat=0 / constrained_intra=0 / fgo=0 / bframes=11 / b_pyramid=2 / b_adapt=2 / b_bias=0 / direct=3 / weightb=1 / open_gop=0 / weightp=2 / keyint=240 / keyint_min=24 / scenecut=40 / intra_refresh=0 / rc_lookahead=60 / rc=crf / mbtree=0 / crf=18.4000 / qcomp=0.75 / qpmin=0:0:0 / qpmax=69:69:69 / qpstep=4 / vbv_maxrate=62500 / vbv_bufsize=78125 / crf_max=0.0 / nal_hrd=none / filler=0 / ip_ratio=1.30 / pb_ratio=1.20 / aq=3:0.65 / aq-sensitivity=10.00 / aq-factor=1.00:1.00:1.00 / aq2=1:0.50 / aq2-sensitivity=15.00 / aq2-factor=1.00:1.00:1.00 / aq3=1:[0.50:0.50]:[0.50:0.50]:[0.50:0.50]:[0.50:0.50] / aq3-sensitivity=10.00 / aq3-factor=[1.00:1.00]:[1.00:1.00]:[1.00:1.00] / aq3-boundary=192:64:24
Language : Italian
Default : Yes
Forced : No
Color range : Limited
Color primaries : BT.709
Transfer characteristics : BT.709
Matrix coefficients : BT.709

Audio
ID : 2
Format : AC-3
Format/Info : Audio Coding 3
Commercial name : Dolby Digital
Codec ID : A_AC3
Duration : 1 h 48 min
Bit rate mode : Constant
Bit rate : 640 kb/s
Channel(s) : 6 channels
Channel layout : L R C LFE Ls Rs
Sampling rate : 48.0 kHz
Frame rate : 31.250 FPS (1536 SPF)
Compression mode : Lossy
Stream size : 499 MiB (3%)
Language : Italian
Service kind : Complete Main
Default : Yes
Forced : No

Text
ID : 3
Format : UTF-8
Codec ID : S_TEXT/UTF8
Codec ID/Info : UTF-8 Plain Text
Duration : 1 h 40 min
Bit rate : 25 b/s
Count of elements : 538
Stream size : 18.9 KiB (0%)
Title : srt
Language : English
Default : Yes
Forced : Yes

Menu
00:00:00.000 : en:00:00:00.000
00:07:14.083 : en:00:07:14.083
00:12:33.625 : en:00:12:33.625
00:20:47.750 : en:00:20:47.750
00:24:29.000 : en:00:24:29.000
00:29:55.083 : en:00:29:55.083
00:33:47.665 : en:00:33:47.665
00:43:03.541 : en:00:43:03.541
00:54:06.625 : en:00:54:06.625
00:58:45.750 : en:00:58:45.750
01:08:35.791 : en:01:08:35.791
01:17:06.875 : en:01:17:06.875
01:19:43.707 : en:01:19:43.707
01:25:13.332 : en:01:25:13.332
01:30:49.832 : en:01:30:49.832
01:35:30.041 : en:01:35:30.041
01:39:30.666 : en:01:39:30.666
01:43:10.166 : en:01:43:10.166





1 个附件 售价 大小 下载 时间

Black.Souls.2014.ITALIAN.1080p.BluRay.x264.DD5.1-EA.torrent 0 金币 18.13K 595 次 1天前

#1楼
发帖时间:2022-01-15 09:19:50   |   回复数:0
游客组