travismk
一代宗师

[更 早] [其他] [剧情] [WEB-1080P] 趁当年 A.Place.for.Lovers.1968.ITALIAN.1080p.AMZN.WEBRip.DDP2.0.x264-WELP 5.89GB

-->

帖子完整标题:趁当年 A.Place.for.Lovers.1968.ITALIAN.1080p.AMZN.WEBRip.DDP2.0.x264-WELP 5.89GB



◎译  名 趁当年/A Place for Lovers/情人们的老地方/泪洒相思地/爱情终结
◎片  名 Amanti
◎年  代 1968
◎产  地 法国,意大利
◎类  别 剧情 / 爱情
◎语  言 英语
◎上映日期 1968-12-19
◎豆瓣评分 6.1/10 from 813 users
◎豆瓣链接 https://movie.douban.com/subject/1305023/
◎片  长 88 分钟
◎导  演 维托里奥·德西卡 Vittorio De Sica
◎编  剧 托尼诺·格拉 Tonino Guerra / 布鲁内洛·龙迪 Brunello Rondi / 恩尼奥·德·孔奇尼 Ennio De Concini / 切萨雷·扎瓦蒂尼 Cesare Zavattini
◎主  演 费·唐纳薇 Faye Dunaway
      马塞洛·马斯楚安尼 Marcello Mastroianni
      Yvonne Gilbert Yvonne Gilbert
      Enrico Simonetti Enrico Simonetti
      埃斯梅拉达露丝珀丽 Esmeralda Ruspoli

◎简  介

  茱莉亚(费·唐纳薇 Faye Dunaway 饰)刚刚结束了一段失败的婚姻,为了排解心中的郁闷,她决定前往威尼斯,和朋友们待在一起。一次偶然中,茱莉亚在电视上看到了一位名叫瓦利瑞恩(马塞洛·马斯楚安尼 Marcello Mastroianni 饰)的工程师接受采访,茱莉亚回想起这正是曾经和自己有过一面之缘的那个男人。
  
  怀着激动之情,茱莉亚主动联络了瓦利瑞恩,和茱莉亚所想的一样,瓦利瑞恩是一位温文尔雅的绅士,随着接触的增加,两人之间燃起了热烈的爱情火花。然而,这段幸福时光并没有持续多久,在感情受到伤害的同时,茱莉亚惊闻自己换上了不治之症,绝望之中,她想到了自我了断。

Video
ID : 1
Format : AVC
Format/Info : Advanced Video Codec
Format profile : [email protected]
Format settings : CABAC / 4 Ref Frames
Format settings, CABAC : Yes
Format settings, Reference frames : 4 frames
Codec ID : V_MPEG4/ISO/AVC
Duration : 1 h 27 min
Bit rate mode : Constant
Bit rate : 9 452 kb/s
Nominal bit rate : 10 000 kb/s
Width : 1 920 pixels
Height : 1 040 pixels
Display aspect ratio : 1.85:1
Frame rate mode : Constant
Frame rate : 23.976 (24000/1001/189150) FPS
Color space : YUV
Chroma subsampling : 4:2:0
Bit depth : 8 bits
Scan type : Progressive
Bits/(Pixel*Frame) : 0.197
Stream size : 5.76 GiB (98%)
Default : Yes
Forced : No
Color range : Limited
Color primaries : BT.709
Transfer characteristics : BT.709
Matrix coefficients : BT.709

Audio
ID : 2
Format : E-AC-3
Format/Info : Enhanced AC-3
Commercial name : Dolby Digital Plus
Codec ID : A_EAC3
Duration : 1 h 27 min
Bit rate mode : Constant
Bit rate : 224 kb/s
Channel(s) : 2 channels
Channel layout : L R
Sampling rate : 48.0 kHz
Frame rate : 31.250 FPS (1536 SPF)
Compression mode : Lossy
Stream size : 140 MiB (2%)
Language : Italian
Service kind : Complete Main
Default : Yes
Forced : No

Text
ID : 3
Format : UTF-8
Codec ID : S_TEXT/UTF8
Codec ID/Info : UTF-8 Plain Text
Duration : 1 h 18 min
Bit rate : 36 b/s
Count of elements : 594
Stream size : 21.0 KiB (0%)
Language : English
Default : Yes
Forced : No





1 个附件 售价 大小 下载 时间

A.Place.for.Lovers.1968.ITALIAN.1080p.AMZN.WEBRip.DDP2.0.x264-WELP.torrent 0 金币 15.36K 434 次 1天前

#1楼
发帖时间:2022-01-15 09:58:52   |   回复数:0
游客组