原生系统
一派掌门

[2021] [香港] [犯罪] [连载] [网盘下载][飞虎3之壮志英雄 Flying Tiger][全30集][国粤双语中字][WEB/MKV][2160P(4K)][Vampire][无水印普码版]

-->


◎译  名 Flying Tiger

◎片  名 飛虎3之壯志英雄 / 飞虎3之壮志英雄 / 飞虎之壮志英雄

◎年  代 2021

◎产  地 中国香港&中国大陆

◎类  别 悬疑 / 犯罪

◎语  言 粤语&国语

◎上映日期 2021-12-16(中国大陆)

◎豆瓣评分 0/10 from 0 users

◎豆瓣链接 https://movie.douban.com/subject/35101017

◎集  数 30

◎片  长 45分钟

◎导  演 查传谊 Chuen-Yee Cha / 黄国强 KK Wong

◎主  演 苗侨伟 Kiu Wai Miu

       黄宗泽 Bosco Wong

       吴卓羲 Ron Ng

       马德钟 Joe Tak-Chung Ma

       张兆辉 Siu-Fai Cheung

       陈豪 Moses Chan

       郭晋安 Roger Kwok

       王敏德 Michael Wong

       梁竞徽 Oscar Leung

       萧正楠 Edwin Siu

       陈滢 Jeannie Chan

       狼森 Philippe Joly

       郑子诚 Tse-sing Cheng

       袁文杰 Andrew Yuen

       张国强 Kwok Keung Cheung

       方力申 Lik-Sun Fong

       姚子羚 Elaine Yiu

       蔡思贝 Sisley Choi

       朱晨丽 Rebecca Zhu

       罗霖 Candy Luo

       白彪 Jason Pai

       蒋怡 Coco Chiang

       黄淑仪 Gigi Wong Suk Yee

       康华 Akina Hong

       黄子恒 Hugo Wong

       翟锋 William Chak

       麦美恩 Mayanne Mak

       杨柳青 Wiyona Yeung

       谭永浩 Jarryd Tam

       罗天宇 Joey Law

       周志康 Daniel Chau

       傅嘉莉 Kelly Fu

       高钧贤 Matthew Kwan Yin Ko

       卫志豪 Michael Wai

       杨玉梅 Yuk-Mui Yeung

       杨证桦 Man Yeung

       陈颍熙 Niki Chan

       潘志文 Ji-man Poon

       游莨维 MasterJoe

       蔡洁 Jacky Cai

       林正峰 Niklas Lam Ching Fung

       林溥来 Patrick Lam Po Loy

       何慈茵 Charlene Houghton


◎标  签 TVB | 黄宗泽 | 港剧 | 苗侨伟 | 吴卓羲 | 陈豪 | 郭晋安 | 马德钟


◎简  介


  恐怖组织“瓦干布”渗透香港,在香港掀起一场化武争夺战,飞虎队总指挥范少锋(陈豪 饰)临危受命,率飞虎队与恐怖分子斗智斗勇。飞虎队身陷瓦干布的无情杀局,特勤队警司展博文(马德钟 饰)召集警界精英张伟桦(张兆辉 饰)、张嘉轩(黄宗泽 饰)和高子乐(吴卓羲 饰)成立秘密反恐小组S Team。面对重重危机,在国际刑警许俊飞(苗侨伟 饰)的协助下,中青两代最终放下恩怨情仇,联手阻止化武病毒在香港蔓延。


General


Unique ID                   : 138958230847668577821978481215288544382 (0x688A61BC63F3853174AA10B2F6FE8C7E)

Complete name               : 飞虎之壮志英雄.Flying.Tige.2021.EP01.2160P(4K).WEB-DL.X265.AAC.2Audios-Vampire.mkv

Format                      : Matroska

Format version              : Version 4

File size                   : 1.19 GiB

Duration                    : 43 min 37 s

Overall bit rate            : 3 905 kb/s

Movie name                  : 飞虎之壮志英雄.Flying.Tige.2021.EP01.2160P(4K).WEB-DL.X265.AAC.2Audios-Vampire / 飞虎之壮志英雄/Flying.Tige

Comment                     : 警告:严禁将任何作品用于商业性质活动,所有制作作品仅限于测试宽带之用,请于下载后24小时内删除。本人不承担任何法律后果!喜欢本作品请购买正版!!!

ARTIST                      : Vampire制作分享作品

DATE_RECORDED               : 2021

GENRE                       : 中国大陆&中国香港


Video

ID                          : 1

Format                      : HEVC

Format/Info                 : High Efficiency Video Coding

Format profile              : [email protected]@Main

Codec ID                    : V_MPEGH/ISO/HEVC

Duration                    : 43 min 37 s

Bit rate                    : 3 521 kb/s

Width                       : 3 840 pixels

Height                      : 2 160 pixels

Display aspect ratio        : 16:9

Frame rate mode             : Constant

Frame rate                  : 25.000 FPS

Color space                 : YUV

Chroma subsampling          : 4:2:0

Bit depth                   : 8 bits

Bits/(Pixel*Frame)          : 0.017

Stream size                 : 1.07 GiB (90%)

Title                       : Vampire制作分享作品

Language                    : Chinese

Default                     : Yes

Forced                      : No

Color range                 : Limited

Color primaries             : BT.709

Transfer characteristics    : BT.709

Matrix coefficients         : BT.709


Audio #1

ID                          : 2

Format                      : AAC LC

Format/Info                 : Advanced Audio Codec Low Complexity

Codec ID                    : A_AAC-2

Duration                    : 43 min 37 s

Bit rate                    : 192 kb/s

Channel(s)                  : 2 channels

Channel layout              : L R

Sampling rate               : 44.1 kHz

Frame rate                  : 43.066 FPS (1024 SPF)

Compression mode            : Lossy

Stream size                 : 59.2 MiB (5%)

Title                       : 粤语广东话

Language                    : Chinese

Default                     : Yes

Forced                      : No


Audio #2

ID                          : 3

Format                      : AAC LC

Format/Info                 : Advanced Audio Codec Low Complexity

Codec ID                    : A_AAC-2

Duration                    : 43 min 37 s

Bit rate                    : 192 kb/s

Channel(s)                  : 2 channels

Channel layout              : L R

Sampling rate               : 44.1 kHz

Frame rate                  : 43.066 FPS (1024 SPF)

Compression mode            : Lossy

Stream size                 : 59.2 MiB (5%)

Title                       : 汉语普通话

Language                    : Chinese

Default                     : No

Forced                      : No


本人发布的种子请使用专业BT下载工具:

UT,Bitcomet,qBittorrent,Xdown开启上传后再下载!!!

使用迅雷或度盘离线可能会没速度!!!


视频的网盘资源均在视频后缀(如mp4或mkv)后又跟随了.xy(mp4.xy或mkv.xy)用以混淆官方视听!
并且加密了文件名,设置了独有的解压密码,请使用WinRAR解压,使用好压或其他可能会出错!
已完结剧集不再分集打包上传,整体打包后分卷,无法单独下载某一集,需要全部下载后一起解压,敬请知晓!
请各位下载的坛友先保存至自己的网盘,然后再进行下载!!!
不要直接在线观看或者解压,否则会很快被网盘官方发觉并和谐!


阿里云盘后缀名凡是“PDF”的,请在下载完成后将后缀名“PDF”修改为“rar”,即可正常解压,观看!

目前阿里云盘上传和下载均不限速,趁着这段“免费VIP”的时间,就暂时放弃度盘吧!


请下载完成的朋友自觉做种一段时间,小水管出种不易,且下且珍惜,谢谢!!!


解压请使用官方原版WinRAR,使用破解版或者好压等软件可能会出错,感谢所有赞赏的朋友!!!


1 个附件 售价 大小 下载 时间

飞虎之壮志英雄.2160P(4K).H265.国粤双语中字无水印阿里云盘版[失效不免费补].rar 0 金币 1.15M 35522 次 28天前

#1楼
发帖时间:2021-12-19 16:47:14   |   回复数:22
show55667878
武林高手
感謝分享這版本
28天前 #2楼
show55667878
武林高手
請問有百度的版本資源嗎??
28天前 #3楼
budong1682008
武林高手
大神出手了,哈哈!
28天前 #4楼
原生系统
一派掌门
引用 budong1682008:

大神出手了,哈哈!

有我喜欢的演员了没办法,反正自己也要看,就顺便给大家做一个了!

28天前 #5楼
budong1682008
武林高手
引用 原生系统:

有我喜欢的演员了没办法,反正自己也要看,就顺便给大家做一个了!

支持,不过现在合拍版的港剧已经没有原来TVB那味道了

28天前 #6楼
原生系统
一派掌门
引用 budong1682008:

支持,不过现在合拍版的港剧已经没有原来TVB那味道了

总局一旦要审核,很多东西就不能出现了,你懂的......

28天前 #7楼
wang133120
一派掌门
求BT种子
27天前 #8楼
wang133120
一派掌门
求BT种子或者度盘
26天前 #9楼
JYLin26
武林高手
Thanks
26天前 #10楼
liangfj
小有名气
为什么不更新了。
20天前 #11楼
原生系统
一派掌门
引用 liangfj:

为什么不更新了。

有60FPS高帧版的了,所以25帧的我就有点不想再做了。但是高桢的又还不全,等全剧完结后或者看情况再说吧。

20天前 #12楼
sulliven00
小有名气
引用 原生系统:

有60FPS高帧版的了,所以25帧的我就有点不想再做了。但是高桢的又还不全,等全剧完结后或者看情况再说吧。

等你的资源

17天前 #13楼
原生系统
一派掌门
引用 sulliven00:

等你的资源

最近有点忙,元旦后给你们更新!

17天前 #14楼
pwolves
武林盟主
谢谢分享
11天前 #15楼
原生系统
一派掌门
4K普码25FPS版全部更新完结!
4天前 #16楼
budong1682008
武林高手
引用 原生系统:

4K普码25FPS版全部更新完结!

辛苦楼主了!

4天前 #17楼
原生系统
一派掌门
引用 budong1682008:

辛苦楼主了!

你是不是买了YYDS的会员?

3天前 #18楼
budong1682008
武林高手
引用 原生系统:

你是不是买了YYDS的会员?

没买他们的会员,不值得!

3天前 #19楼
原生系统
一派掌门
引用 budong1682008:

没买他们的会员,不值得!

我还以为你买了他的会员呢,这样你还可以搬运一些他们的东西过来。

3天前 #20楼
游客组